<?xml version="1.0" standalone="no"?>
<!DOCTYPE svg PUBLIC "-//W3C//DTD SVG 1.1//EN" "http://www.w3.org/Graphics/SVG/1.1/DTD/svg11.dtd" >
<svg xmlns="http://www.w3.org/2000/svg">
<metadata>Generated by IcoMoon</metadata>
<defs>
<font id="admin-icons" horiz-adv-x="1024">
<font-face units-per-em="1024" ascent="960" descent="-64" />
<missing-glyph horiz-adv-x="1024" />
<glyph unicode="&#x20;" horiz-adv-x="512" d="" />
<glyph unicode="&#xe600;" glyph-name="account" d="M937.258-7.119c15.55 0.009 28.182 12.487 28.44 27.976v2.024c-18.78 204.344-228.364 274.005-292.366 279.505-46.821 4.14-47.541 41.801-47.541 88.802 58.33 68.682 95.472 156.977 100.42 253.774l0.042 1.031c0 154.283-87.842 257.205-214.244 257.205s-214.244-103.002-214.244-257.205c4.99-97.828 42.132-186.123 100.97-255.419l-0.508 0.614c0-47.001-0.74-84.662-47.621-88.742-64.001-5.7-273.525-75.161-292.346-279.505-0.030-0.485-0.046-1.052-0.046-1.623 0-15.041 11.676-27.355 26.458-28.373l0.088-0.005z" />
<glyph unicode="&#xe601;" glyph-name="arrowdown" horiz-adv-x="1085" d="M529.203 73.86l-468.465 628.209h936.931l-468.465-628.209z" />
<glyph unicode="&#xe602;" glyph-name="cms" d="M189.804 328.848h318.126v-90.882h-318.126v90.882zM553.371 328.848h136.343v-90.882h-136.343v90.882zM735.154 328.848h90.882v-90.882h-90.882v90.882zM189.804 556.072h636.232v-136.343h-636.232v136.343zM932.018 853.098h-840.016c-15.464 0-28.001-12.536-28.001-28.001v0 0-671.853c0-15.464 12.536-28.001 28.001-28.001v0h840.016c15.464 0 28.001 12.536 28.001 28.001v0 671.873c-0.011 15.456-12.543 27.981-28.001 27.981v0zM120.002 181.085v503.87h784.015v-504.010z" />
<glyph unicode="&#xe603;" glyph-name="customers" d="M751.115 406.109c-36.001 3.12-36.501 32.001-36.501 68.001 44.743 52.7 73.228 120.448 77.010 194.716l0.032 0.788c0 118.122-67.361 197.264-164.303 197.264-26.948-0.010-52.283-6.906-74.344-19.024l0.803 0.404c66.94-52.154 109.586-132.778 109.586-223.362 0-5.312-0.147-10.59-0.436-15.83l0.032 0.728c-1.606-70.514-21.779-135.994-55.794-192.154l0.973 1.73c-2.158-3.543-3.435-7.828-3.435-12.411 0-8.752 4.657-16.415 11.628-20.649l0.107-0.060c1.411-0.865 3.038-1.623 4.753-2.192l0.168-0.048c105.688-32.262 188.118-111.575 224.027-212.898l0.737-2.386h107.062c0.084-0.001 0.183-0.002 0.283-0.002 11.815 0 21.416 9.477 21.617 21.243v0.019c0.014 0.245 0.022 0.532 0.022 0.82s-0.008 0.575-0.024 0.859l0.002-0.039c-14.22 156.763-174.863 210.144-224.004 214.484zM765.775 75.623c0.006 0 0.013 0 0.020 0 12.843 0 23.258 10.4 23.28 23.238v0.002c0 0.44 0 0.86 0 1.3-15.4 167.143-186.784 224.124-239.185 228.684-38.361 3.34-38.961 34.161-38.961 72.601 47.722 56.216 78.1 128.483 82.128 207.705l0.034 0.839c0 126.282-71.781 210.424-175.203 210.424s-175.283-84.202-175.283-210.424c4.087-80.043 34.477-152.286 82.618-208.987l-0.416 0.502c0-38.441-0.62-69.261-38.961-72.601-52.421-4.72-223.844-61.601-239.205-228.744-0.022-0.38-0.035-0.825-0.035-1.272 0-12.415 9.727-22.559 21.976-23.226l0.059-0.003h1.2z" />
<glyph unicode="&#xe604;" glyph-name="dashboard" d="M238.425 393.769c0-28.399-23.022-51.421-51.421-51.421s-51.421 23.022-51.421 51.421c0 28.399 23.022 51.421 51.421 51.421s51.421-23.022 51.421-51.421zM331.646 626.833c0-28.399-23.022-51.421-51.421-51.421s-51.421 23.022-51.421 51.421c0 28.399 23.022 51.421 51.421 51.421s51.421-23.022 51.421-51.421zM797.776 626.833c0-28.399-23.022-51.421-51.421-51.421s-51.421 23.022-51.421 51.421c0 28.399 23.022 51.421 51.421 51.421s51.421-23.022 51.421-51.421zM564.711 720.055c0-28.399-23.022-51.421-51.421-51.421s-51.421 23.022-51.421 51.421c0 28.399 23.022 51.421 51.421 51.421s51.421-23.022 51.421-51.421zM890.997 393.769c0-28.399-23.022-51.421-51.421-51.421s-51.421 23.022-51.421 51.421c0 28.399 23.022 51.421 51.421 51.421s51.421-23.022 51.421-51.421zM661.413 515.051c-14 8.18-108.482-107.102-149.103-145.043-49.275-0.565-89.002-40.641-89.002-89.996 0-49.707 40.295-90.002 90.002-90.002s90.002 40.295 90.002 90.002c0 0.040 0 0.081 0 0.121v-0.006c-0.065 14.354-3.531 27.883-9.633 39.843l0.233-0.502c17.38 53.841 82.822 186.644 67.501 195.584zM1022.020 438.59c-24.7 280.965-272.465 488.71-553.411 464.029s-488.61-272.425-464.029-553.391c9.063-100.406 45.914-190.769 102.707-265.079l-0.905 1.233c4.906-6.243 12.457-10.216 20.936-10.216 6.208 0 11.919 2.13 16.441 5.699l-0.056-0.043c0.36 0.26 0.7 0.56 1.040 0.84l17.68 14.92c5.364 4.644 8.738 11.463 8.738 19.071 0 5.929-2.049 11.379-5.477 15.681l0.039-0.051c-146.323 192.004-109.342 466.189 82.622 612.512s466.189 109.322 612.512-82.622c55.824-72.641 89.463-164.865 89.463-264.945s-33.639-192.304-90.227-265.981l0.764 1.035c-3.386-4.243-5.432-9.683-5.432-15.602 0-7.596 3.372-14.405 8.701-19.012l0.032-0.027 17.68-15.020c4.644-4.017 10.742-6.464 17.411-6.464 8.073 0 15.308 3.585 20.2 9.25l0.029 0.034 0.72 0.88c64.794 84.514 103.831 191.744 103.831 308.092 0 15.904-0.729 31.638-2.157 47.17l0.148-1.995z" />
<glyph unicode="&#xe605;" glyph-name="filter" d="M24.097 846.535h972.827v-111.922l-410.504-412.792v-238.366l-171.447-87.505v325.871l-390.875 415.877v108.837z" />
<glyph unicode="&#xe606;" glyph-name="logo" horiz-adv-x="903" d="M454.495 911.101l-402.697-240.513v-457.026l104.632-60.727v457.049l298.157 178.728 299.698-179.142-0.138-455.922 103.528 60.013v457.026l-403.18 240.513zM507.766 629.72v-534.344l-53.271-32.124-53.34 32.262v533.792l-138.090-83.853v-456.934l191.453-115.516 193.087 116.322v456.451l-139.839 83.945z" />
<glyph unicode="&#xe607;" glyph-name="notification-02" d="M512.010-64.020c60.515 5.449 108.323 53.249 113.747 113.278l0.035 0.484h-227.564c5.443-60.52 53.26-108.33 113.3-113.727l0.482-0.035zM772.015 636.134c0 97.862-91.002 139.083-203.124 149.863v88.662c-1.184 15.992-14.45 28.519-30.642 28.519-0.668 0-1.331-0.021-1.989-0.063l0.090 0.005h-48.761c-0.561 0.037-1.216 0.057-1.876 0.057-16.183 0-29.44-12.53-30.598-28.418l-0.006-0.1v-88.662c-112.002-10.72-203.104-52.001-203.104-149.863 0-438.449-138.183-418.888-138.183-476.969v-52.501h796.416v52.501c0 61.281-138.223 38.521-138.223 476.969z" />
<glyph unicode="&#xe608;" glyph-name="product" d="M466.489-52.62l-386.228 214.604c-14.050 7.936-23.38 22.771-23.38 39.786 0 0.012 0 0.025 0 0.037v-0.002 382.727l409.608-227.564zM943.678 161.984l-386.168-214.604v409.588l409.608 227.564v-382.807c-0.017-17.012-9.37-31.835-23.212-39.623l-0.228-0.118zM700.754 854.238l-167.083 90.522c-6.263 3.456-13.729 5.489-21.67 5.489s-15.407-2.033-21.906-5.608l0.236 0.119-416.328-225.624c-7.407-4.037-12.349-11.767-12.349-20.65s4.942-16.613 12.227-20.589l0.123-0.061 157.303-85.342zM950.019 719.135l-154.463 83.802-469.689-261.705 186.144-100.742 438.009 237.405c7.376 4.046 12.294 11.759 12.294 20.62s-4.917 16.574-12.172 20.559l-0.122 0.061z" />
<glyph unicode="&#xe609;" glyph-name="promotions" d="M221.084 750.536c-82.8-0.982-149.544-68.333-149.544-151.273s66.744-150.291 149.451-151.272l0.093-0.001h151.283v302.546zM930.918 308.367c-0.025-12.849-10.448-23.256-23.3-23.256-5.054 0-9.733 1.609-13.551 4.343l0.070-0.048c-72.421 51.901-237.845 158.583-368.127 158.583h-83.822v302.546h83.822c152.663 0 301.806 88.442 368.547 135.503 3.673 2.535 8.22 4.049 13.121 4.049 12.819 0 23.217-10.36 23.28-23.164v-0.006zM428.228 98.303l-58.701 279.865h-147.823l62.881-297.886c4.234-16.166 18.674-27.915 35.871-28.001h71.651c20.522 0.045 37.141 16.692 37.141 37.221 0 0.035 0 0.070 0 0.105v-0.005c0 0.028 0 0.062 0 0.095 0 3.054-0.372 6.021-1.073 8.858l0.053-0.253z" />
<glyph unicode="&#xe60a;" glyph-name="reports" d="M765.555 883.078v-768.015h170.683v768.015c0 15.707-12.733 28.441-28.441 28.441-0.007 0-0.014 0-0.021 0h-113.761c-0.006 0-0.013 0-0.020 0-15.707 0-28.441-12.733-28.441-28.441v0zM538.011 598.633v-483.549h170.663v483.549c0 15.707-12.733 28.441-28.441 28.441v0h-113.782c-0.006 0-0.013 0-0.020 0-15.696 0-28.421-12.724-28.421-28.421 0-0.007 0-0.014 0-0.021v0.001zM310.446 371.088v-256.005h170.663v256.005c0 15.707-12.733 28.441-28.441 28.441h-113.782c-15.707 0-28.441-12.733-28.441-28.441v0zM82.882 257.306v-142.223h170.683v142.223c-0.011 15.71-12.749 28.441-28.461 28.441 0 0 0 0 0 0h-113.762c-15.711 0-28.449-12.731-28.461-28.439v-0.001zM40.221 58.182h938.678c7.854 0 14.22-6.367 14.22-14.22v-28.441c0-7.854-6.367-14.22-14.22-14.22h-938.678c-7.854 0-14.22 6.367-14.22 14.22v28.441c0 7.854 6.367 14.22 14.22 14.22z" />
<glyph unicode="&#xe60b;" glyph-name="sales" d="M751.675 554.352c0-63.525-51.497-115.022-115.022-115.022s-115.022 51.497-115.022 115.022c0 63.525 51.497 115.022 115.022 115.022s115.022-51.497 115.022-115.022zM239.665 349.268v417.568c0 16.48 12.54 29.841 28.001 29.841h728.354c15.48 0 28.001-13.36 28.001-29.841v-417.628c0-16.46-12.54-29.821-28.001-29.821h-728.334c-15.48 0-28.001 13.36-28.001 29.821zM968.019 627.994c-48.001 18-85.622 58.001-102.642 109.102h-467.229c-16.96-51.101-54.601-91.102-102.442-109.102v-140.003c47.841-18 85.482-58.161 102.442-109.102h467.189c17.020 51.101 54.681 91.102 102.682 109.102zM940.018 199.365h-784.355c-15.464 0-28.001 12.536-28.001 28.001v0 0 448.189c0 15.464 12.536 28.001 28.001 28.001v0h28.001v-448.169h784.355v-28.001c0-0.006 0-0.013 0-0.020 0-15.464-12.536-28.001-28.001-28.001v0zM820.016 95.283h-784.415c-15.464 0-28.001 12.536-28.001 28.001v0 448.209c0 15.464 12.536 28.001 28.001 28.001v0h28.001v-448.169h784.415v-28.001c0-0.012 0-0.026 0-0.040 0-15.464-12.536-28.001-28.001-28.001v0z" />
<glyph unicode="&#xe60c;" glyph-name="search" d="M943.618 100.583l-221.124 221.004c117.402 163.763 79.822 391.688-84.002 509.070-58.976 42.705-132.768 68.31-212.54 68.31-121.724 0-229.524-59.616-295.795-151.244l-0.735-1.067c-117.402-163.743-79.822-391.668 84.002-509.070 58.981-42.712 132.781-68.32 212.562-68.32 79.697 0 153.424 25.554 213.437 68.917l-1.070-0.736 221.064-221.004c10.284-8.62 23.659-13.856 38.256-13.856 32.994 0 59.741 26.747 59.741 59.741 0 14.598-5.236 27.973-13.932 38.349l0.076-0.093zM170.663 533.332c0 141.388 114.617 256.005 256.005 256.005s256.005-114.617 256.005-256.005c0-141.388-114.617-256.005-256.005-256.005v0c-141.388 0-256.005 114.617-256.005 256.005v0z" />
<glyph unicode="&#xe60d;" glyph-name="stores" d="M998.019 504.351h-968.939c-7.471 0.022-14.094 3.633-18.237 9.2l-0.043 0.061c-2.874 3.862-4.601 8.726-4.601 13.994 0 2.274 0.322 4.472 0.922 6.553l-0.041-0.167 100.142 356.307c3.386 12.302 14.461 21.193 27.617 21.22h757.638c13.091-0.047 24.11-8.863 27.492-20.879l0.049-0.202 100.142-356.267c0.562-1.918 0.886-4.121 0.886-6.4 0-5.28-1.737-10.154-4.67-14.083l0.044 0.062c-4.178-5.72-10.86-9.395-18.399-9.4h-0.001zM856.857 446.19v-174.503h-457.589v174.503h-57.261v-407.168h-171.523v407.168h-57.201v-407.168c-0.001-0.143-0.002-0.313-0.002-0.482 0-31.692 25.551-57.417 57.176-57.699h686.4c31.635 0.304 57.163 26.020 57.163 57.699 0 0.163-0.001 0.325-0.002 0.487v-0.025 407.188zM113.282 562.512h57.201l57.201 290.846h-57.201zM356.367 562.512h57.201l28.601 290.846h-57.201zM585.171 853.358l28.601-290.846h57.181l-28.581 290.846zM856.617 853.358h-56.821l57.201-290.846h57.201z" />
<glyph unicode="&#xe60f;" glyph-name="views" horiz-adv-x="1890" d="M944.97 630.958c-97.861 0-177.522-79.581-177.522-177.443 0-97.94 79.66-177.679 177.522-177.679 98.019 0 177.679 79.739 177.679 177.679 0 97.861-79.66 177.443-177.679 177.443zM944.97 960c-470.712 0-944.97-512-944.97-512s474.258-512 944.97-512c470.949 0 945.128 512 945.128 512s-474.179 512-945.128 512zM944.97 91.144c-200.057 0-362.292 162.078-362.292 362.45 0 200.057 162.236 362.292 362.292 362.292 200.214 0 362.45-162.236 362.45-362.292 0-200.451-162.236-362.45-362.45-362.45z" />
<glyph unicode="&#xe610;" glyph-name="system-config" d="M899.598 519.071h-64.521c-4.885 0.035-8.976 3.395-10.125 7.927l-0.016 0.073c-8.421 32.654-20.706 61.32-36.642 87.52l0.801-1.418c-0.979 1.559-1.56 3.454-1.56 5.484 0 2.901 1.186 5.526 3.099 7.415l45.602 45.602c7.793 7.789 12.612 18.552 12.612 30.441s-4.82 22.651-12.612 30.44v0l-39.561 39.641c-7.8 7.785-18.568 12.599-30.461 12.599s-22.66-4.814-30.461-12.6l-45.74-45.66c-1.898-1.887-4.514-3.054-7.403-3.054-2.034 0-3.933 0.578-5.542 1.58l0.044-0.026c-24.753 15.104-53.384 27.374-83.768 35.305l-2.234 0.495c-4.605 1.164-7.965 5.255-8 10.136v64.525c0 0.006 0 0.013 0 0.020 0 23.76-19.261 43.021-43.021 43.021-0.028 0-0.056 0-0.084 0h-55.997c-0.006 0-0.013 0-0.020 0-23.76 0-43.021-19.261-43.021-43.021 0-0.007 0-0.014 0-0.021v0.001-64.481c-0.043-4.883-3.399-8.97-7.927-10.124l-0.073-0.016c-32.615-8.401-61.249-20.674-87.414-36.599l1.412 0.799c-1.558-0.969-3.45-1.544-5.475-1.544-2.901 0-5.527 1.179-7.425 3.084v0l-45.481 45.621c-7.792 7.788-18.554 12.604-30.441 12.604s-22.649-4.817-30.441-12.604l-39.561-39.561c-7.796-7.799-12.618-18.572-12.618-30.471s4.822-22.671 12.618-30.471v0l45.661-45.741c1.875-1.887 3.035-4.488 3.035-7.359 0-2.029-0.579-3.923-1.58-5.525l0.026 0.044c-15.178-24.78-27.514-53.441-35.502-83.864l-0.499-2.237c-1.132-4.623-5.239-8-10.135-8-0.002 0-0.003 0-0.005 0h-64.641c-23.771 0-43.041-19.27-43.041-43.041 0-0.007 0-0.014 0-0.021v0.001-55.841c0-0.006 0-0.013 0-0.020 0-23.771 19.27-43.041 43.041-43.041h64.481c4.883-0.043 8.97-3.399 10.124-7.927l0.016-0.073c8.427-32.618 20.711-61.25 36.641-87.417l-0.801 1.416c0.965-1.55 1.537-3.432 1.537-5.447 0-2.89-1.176-5.505-3.077-7.393l-0.001-0.001-45.621-45.761c-7.788-7.792-12.604-18.554-12.604-30.441s4.817-22.649 12.604-30.441l39.581-39.621c7.796-7.795 18.565-12.616 30.461-12.616s22.665 4.821 30.461 12.616l45.701 45.661c1.887 1.895 4.499 3.068 7.384 3.068 2.036 0 3.935-0.584 5.54-1.593l-0.043 0.025c24.787-15.125 53.459-27.409 83.886-35.346l2.235-0.495c4.613-1.151 7.98-5.25 8-10.138v-64.563c0 0 0 0 0 0 0-23.761 19.245-43.027 42.998-43.061h55.844c23.782 0 43.061 19.279 43.061 43.061v0 64.321c0.035 4.885 3.395 8.976 7.927 10.125l0.073 0.016c32.618 8.427 61.25 20.711 87.417 36.641l-1.416-0.801c1.55 0.972 3.434 1.548 5.453 1.548 2.89 0 5.504-1.181 7.386-3.087l0.001-0.001 45.661-45.601c7.789-7.793 18.552-12.612 30.441-12.612s22.651 4.82 30.44 12.612v0l39.721 39.561c7.788 7.792 12.604 18.554 12.604 30.441s-4.817 22.649-12.604 30.441l-45.661 45.661c-1.914 1.89-3.1 4.515-3.1 7.416 0 2.031 0.581 3.926 1.585 5.528l-0.025-0.044c15.119 24.782 27.403 53.446 35.345 83.864l0.496 2.238c1.145 4.617 5.247 7.987 10.139 8h64.562c0 0 0 0 0 0 23.782 0 43.061 19.279 43.061 43.061 0 0.021 0 0.042 0 0.063v-0.003 56.001c0 0.024 0 0.052 0 0.080 0 23.747-19.222 43.004-42.955 43.061h0.135zM512.010 304.487c-79.237 0.023-143.463 64.262-143.463 143.503 0 79.254 64.248 143.503 143.503 143.503s143.503-64.248 143.503-143.503v0c-0.011-79.257-64.264-143.503-143.523-143.503-0.007 0-0.014 0-0.021 0h0.001z" />
<glyph unicode="&#xe611;" glyph-name="home" d="M509.978 905.574l-509.978-509.926 95.949-95.949 414.106 413.978 413.875-413.978 95.949 95.898-509.901 509.978zM146.253 271.437v-335.437h259.917v304.819h207.514v-304.819h259.917v335.488l-363.622 363.597-363.725-363.648z" />
<glyph unicode="&#xe612;" glyph-name="lego" d="M910.238 732.436h-56.901v193.004c0 11.779-9.543 21.329-21.319 21.34h-42.682c-11.777-0.011-21.32-9.561-21.32-21.34v0-193.004h-170.683v193.004c0 11.779-9.543 21.329-21.319 21.34h-42.682c-11.777-0.011-21.32-9.561-21.32-21.34v0-193.004h-56.901c-31.415 0-56.881-25.467-56.881-56.881v0-56.881c0-0.006 0-0.013 0-0.020 0-31.415 25.467-56.881 56.881-56.881h1v-156.443c0-70.694 57.309-128.003 128.003-128.003v0h55.901v-85.342c-11.549-72.976-74.008-128.107-149.343-128.107s-137.794 55.131-149.231 127.249l-0.112 0.858v439.869c0.024 1.022 0.038 2.227 0.038 3.434 0 77.070-56.285 140.995-129.991 152.91l-0.889 0.119c-5.481 0.719-11.82 1.13-18.255 1.13-62.429 0-115.83-38.653-137.578-93.332l-0.351-1c-1.058-2.476-1.674-5.356-1.674-8.381 0-8.825 5.239-16.427 12.777-19.864l0.137-0.056 36.661-15.76c2.735-1.289 5.94-2.041 9.321-2.041 8.936 0 16.644 5.256 20.202 12.845l0.058 0.137 0.22 0.52c9.309 24.576 32.652 41.731 60.002 41.731 35.347 0 64.001-28.654 64.001-64.001 0-0.088 0-0.176-0.001-0.264v0.014-448.009c11.778-120.221 112.34-213.395 234.665-213.395s222.886 93.174 234.587 212.424l0.077 0.971v85.342h55.121c70.694 0 128.003 57.309 128.003 128.003v0 156.443h1.78c31.417 0.011 56.881 25.483 56.881 56.901v56.881c0 31.415-25.467 56.881-56.881 56.881v0z" />
<glyph unicode="&#xe613;" glyph-name="tool" d="M287.002 478.336c0.205-0.23 0.461-0.486 0.691-0.717l103.347-103.373 36.045 36.045-56.55 56.499 90.266 90.189 11.904-1.28c3.046-0.307 6.093-0.538 9.19-0.538 6.246 0 12.314 0.768 18.253 2.125l-66.381 66.381c-1.357 1.382-2.765 2.611-4.173 3.814 20.454 73.6 1.766 155.725-56.038 213.555-57.421 57.421-138.803 76.237-211.968 56.525l123.955-123.981-32.563-121.446-121.395-32.589-124.032 124.006c-19.712-73.19-0.896-154.573 56.525-212.019 60.262-60.288 147.021-77.952 222.925-53.197zM653.235 404.198c-1.997-8.909-2.509-18.202-1.459-27.546l1.306-11.93-90.189-90.189-56.55 56.55-36.070-36.122 327.219-327.194c20.198-20.173 46.618-30.259 73.062-30.259s52.915 10.086 73.037 30.259c40.346 40.32 40.346 105.728 0 146.074l-290.355 290.355zM905.907 1.638l-51.866-13.875-42.112 42.112 13.901 51.891 51.866 13.926 42.112-42.138-13.901-51.917zM506.701 365.901l56.576-56.576 64.128 64.154c-3.482 31.334 6.707 63.821 30.669 87.808 24.013 23.962 56.474 34.176 87.808 30.72l280.397 280.346-157.056 157.056-280.448-280.397c3.482-31.258-6.682-63.821-30.669-87.782-24.013-23.987-56.525-34.176-87.808-30.643l-64.102-64.205 56.499-56.422-277.043-277.12-10.138 10.138-53.248-42.829-89.421-141.312 22.835-22.835 141.312 89.421 42.803 53.222-10.138 10.138 277.043 277.12z" />
<glyph unicode="&#xe614;" glyph-name="upgrade" d="M1023.932 454.895c-3.717 282.692-236.1 508.826-518.793 505.003-282.658-3.775-508.826-236.066-505.071-518.827 3.772-282.556 236.1-508.826 518.793-505.003 282.658 3.768 508.826 236.066 505.071 518.827zM623.991 478.696v-298.633h-223.983v298.633h-186.621l298.633 298.633 298.667-298.633h-186.679z" />
<glyph unicode="&#xe615;" glyph-name="expand-close" d="M512.794 960c-283.187 0-512.794-229.581-512.794-512.794 0-283.187 229.606-512.794 512.794-512.794s512.794 229.632 512.794 512.794c0 283.213-229.581 512.794-512.794 512.794zM512.794-11.213c-253.158 0-458.394 205.261-458.394 458.368 0 253.158 205.261 458.394 458.394 458.394 253.184 0 458.394-205.235 458.394-458.394 0.026-253.107-205.21-458.368-458.394-458.368zM760.013 334.387l30.387 38.4-265.6 206.413-20.787 1.613-259.226-208.026 28.826-39.987 236.8 177.613z" />
<glyph unicode="&#xe616;" glyph-name="expand-open" d="M512.794 960c-283.187 0-512.794-229.581-512.794-512.794 0-283.187 229.606-512.794 512.794-512.794s512.794 229.606 512.794 512.794c0 283.213-229.581 512.794-512.794 512.794zM512.794-11.213c-253.158 0-458.394 205.261-458.394 458.394 0 253.158 205.261 458.394 458.394 458.394 253.184 0 458.394-205.235 458.394-458.394 0.026-253.133-205.21-458.394-458.394-458.394zM265.6 505.6l-30.387-38.4 265.574-206.387 20.813-1.613 259.2 208-28.8 39.987-236.8-177.587z" />
<glyph unicode="&#xe617;" glyph-name="gripper" d="M259.2 960h214.323v-214.323h-214.323v214.323zM259.2 690.125h214.323v-214.349h-214.323v214.349zM259.2 420.224h214.323v-214.349h-214.323v214.349zM259.2 150.349h214.323v-214.349h-214.323v214.349zM549.325 960h214.323v-214.323h-214.323v214.323zM549.325 690.125h214.323v-214.349h-214.323v214.349zM549.325 420.224h214.323v-214.349h-214.323v214.349zM549.325 150.349h214.323v-214.349h-214.323v214.349z" />
<glyph unicode="&#xe618;" glyph-name="forward" d="M860.058 774.938v-272l-430.029 269.158-1.894-253.491-424.371 249.754-3.763-647.834 426.24 241.28-5.606-239.437 439.424 252.16v-259.635h163.942v660.045z" />
<glyph unicode="&#xe619;" glyph-name="backward" d="M163.942 114.893v271.974l430.029-269.133 1.894 253.491 424.397-249.754 3.738 647.834-426.24-241.28 5.606 239.437-439.424-252.16v259.635h-163.942v-660.045z" />
<glyph unicode="&#xe61a;" glyph-name="info" d="M505.704 919.002c-260.096-3.489-468.158-217.202-464.706-477.336 3.489-259.982 217.202-468.12 477.298-464.631s468.158 217.202 464.706 477.336c-3.413 260.058-217.202 468.12-477.298 464.631zM557.928 762.027c47.863 0 62.009-27.762 62.009-59.544 0-39.671-31.782-76.383-86.016-76.383-45.359 0-66.901 22.831-65.65 60.53 0 31.782 26.624 75.435 89.657 75.435zM435.162 153.619c-32.73 0-56.661 19.873-33.792 107.217l37.547 154.814c6.485 24.841 7.585 34.778 0 34.778-9.785 0-52.262-17.143-77.407-34.057l-16.346 26.776c79.607 66.446 171.16 105.472 210.375 105.472 32.73 0 38.153-38.722 21.807-98.266l-43.008-162.816c-7.585-28.786-4.286-38.722 3.262-38.722 9.785 0 41.984 11.871 73.614 36.75l18.47-24.841c-77.369-77.369-161.792-107.179-194.56-107.179z" />
<glyph unicode="&#xe61b;" glyph-name="lock" d="M591.986 511.981h-16.005v192.019c0 105.851-86.13 192.019-192.019 192.019h-128c-105.851 0-192.019-86.13-192.019-192.019v-192.019h-16.005c-26.396 0-48.014-21.618-48.014-48.014v-479.991c0-26.396 21.618-48.014 48.014-48.014h544.009c26.396 0 48.014 21.618 48.014 48.014v479.991c0 26.396-21.618 48.014-48.014 48.014zM384 64h-128l27.838 139.188c-16.801 11.529-27.838 30.872-27.838 52.793 0 35.347 28.672 64.019 64.019 64.019s64.019-28.672 64.019-64.019c0-21.921-11.036-41.263-27.838-52.793l27.838-139.188zM448.019 511.981h-256v192.019c0 35.271 28.71 64.019 64.019 64.019h128c35.271 0 64.019-28.71 64.019-64.019v-192.019z" />
<glyph unicode="&#xe61c;" glyph-name="loop" d="M870.4 642.56h-194.56v-143.36h153.6v-215.040h-634.88v215.040h215.040v-112.64l204.8 184.32-204.8 184.32v-112.64h-256c-56.51 0-102.4-45.815-102.4-102.4v-296.96c0-56.51 45.89-102.4 102.4-102.4h716.8c56.585 0 102.4 45.89 102.4 102.4v296.96c0 56.585-45.815 102.4-102.4 102.4z" />
<glyph unicode="&#xe61d;" glyph-name="plus" d="M991.991 576h-351.991v351.991c0 17.673-14.336 32.009-32.009 32.009h-192.019c-17.673 0-32.009-14.336-32.009-32.009v-351.991h-351.991c-17.673 0-32.009-14.336-32.009-32.009v-192.019c0-17.673 14.336-32.009 32.009-32.009h351.991v-351.991c0-17.673 14.336-32.009 32.009-32.009h192.019c17.673 0 32.009 14.336 32.009 32.009v351.991h351.991c17.673 0 32.009 14.336 32.009 32.009v192.019c0 17.673-14.336 32.009-32.009 32.009z" />
<glyph unicode="&#xe61e;" glyph-name="recover" d="M505.704 919.002c-260.096-3.489-468.158-217.126-464.706-477.298 3.489-260.21 217.202-468.158 477.298-464.744 260.134 3.489 468.233 217.202 464.706 477.298-3.489 260.21-217.202 468.233-477.298 464.744zM506.577 857.6c70.163 0.986 136.382-15.853 194.56-46.118l-63.374-105.662c-38.002 18.47-80.631 28.937-125.762 28.937-45.056 0-87.723-10.43-125.687-28.975l-63.336 105.624c54.993 28.672 117.343 45.321 183.599 46.232zM254.255 322.313l-105.586-63.298c-28.672 54.955-45.321 117.305-46.194 183.486-0.986 70.201 15.853 136.457 46.118 194.56l105.624-63.45c-18.546-37.926-28.975-80.555-28.975-125.649 0-45.056 10.43-87.723 28.975-125.687zM517.461 38.438c-70.163-0.986-136.457 15.853-194.56 46.118l63.374 105.662c38.002-18.546 80.631-28.975 125.687-28.975 45.094 0 87.761 10.392 125.687 28.937l63.336-105.586c-54.993-28.634-117.305-45.246-183.561-46.194zM512 222.758c-124.397 0-225.242 100.883-225.242 225.242 0 124.397 100.883 225.28 225.242 225.28 124.473 0 225.28-100.883 225.28-225.28s-100.807-225.242-225.28-225.242zM769.745 322.313c18.546 38.002 28.975 80.631 28.975 125.687 0 45.094-10.43 87.723-28.975 125.687l105.586 63.374c28.672-54.993 45.359-117.305 46.232-183.561 0.91-70.201-15.929-136.457-46.194-194.56l-105.624 63.336z" />
<glyph unicode="&#xe61f;" glyph-name="refresh" horiz-adv-x="1176" d="M906.126 824.187v0c-91.174 75.89-202.487 113.171-312.548 113.057-127.014 0.038-253.611-49.683-348.16-145.636l-95.004 79.265-1.593-305.342 300.184 56.282-99.442 82.944c67.546 64.247 155.269 97.204 244.015 97.28 79.948-0.038 159.782-26.7 226.114-81.806 84.347-70.125 127.659-170.629 127.772-272.46-0.038-14.715-0.948-29.431-2.769-44.070l137.519 26.283c0.19 5.954 0.303 11.871 0.303 17.787 0.152 140.098-60.151 279.78-176.431 376.415zM839.035 193.024c-67.736-65.498-156.255-99.025-245.912-99.1-79.986 0.038-159.82 26.738-226.114 81.806-84.347 70.125-127.697 170.629-127.772 272.498 0 16.839 1.252 33.716 3.679 50.366l-138.164-25.941c-0.379-8.116-0.683-16.346-0.683-24.462-0.114-140.174 60.226-279.817 176.545-376.491 91.136-75.852 202.411-113.057 312.51-112.981h0.341c127.924 0 255.241 50.441 349.943 147.759l90.795-75.207 0.569 305.38-299.956-57.344 104.183-86.281z" />
<glyph unicode="&#xe620;" glyph-name="remove-small" horiz-adv-x="1176" d="M593.351 938.268c-270.753 0-490.268-219.477-490.268-490.231s219.515-490.268 490.268-490.268 490.231 219.515 490.231 490.268c0 270.753-219.477 490.231-490.231 490.231zM828.947 276.347l-72.363-72.363-162.095 162.133-164.902-164.902-73.121 73.121 164.902 164.902-161.678 161.678 72.363 72.325 161.602-161.678 165.774 165.736 73.121-73.083-165.774-165.736 162.171-162.133z" />
<glyph unicode="&#xe621;" glyph-name="retweet" d="M254.976 284.16v267.264h103.424l-179.2 203.776-179.2-203.776h103.424v-308.224c0-56.51 45.815-102.4 102.4-102.4h459.776l-131.186 143.36h-279.438zM920.538 344.576v308.224c0 56.51-45.89 102.4-102.4 102.4h-459.738l131.11-143.36h279.514v-267.264h-103.424l179.2-203.776 179.2 203.776h-103.462z" />
<glyph unicode="&#xe622;" glyph-name="unlocked" d="M768 895.981h-128c-105.851 0-192.019-86.13-192.019-192.019v-192.019h-400.005c-26.396 0-48.014-21.618-48.014-48.014v-479.991c0-26.396 21.618-48.014 48.014-48.014h544.009c26.396 0 48.014 21.618 48.014 48.014v479.991c0 26.396-21.618 48.014-48.014 48.014h-16.005v192.019c0 35.271 28.71 64.019 64.019 64.019h128c35.271 0 64.019-28.71 64.019-64.019v-192.019h128v192.019c0 105.851-86.13 192.019-192.019 192.019zM384 64h-128l27.838 139.188c-16.801 11.529-27.838 30.872-27.838 52.793 0 35.347 28.672 64.019 64.019 64.019s64.019-28.672 64.019-64.019c0-21.921-11.036-41.263-27.838-52.793l27.838-139.188z" />
<glyph unicode="&#xe623;" glyph-name="warning" horiz-adv-x="1176" d="M593.351 960l-593.351-1023.962h1186.74l-593.351 1023.962zM653.236 60.549h-125.421v121.211h125.421v-121.211zM622.175 231.671h-62.502l-34.816 288.313v156.748h131.3v-156.748l-33.982-288.313z" />
<glyph unicode="&#xe624;" glyph-name="arrow-left" d="M0 448l512-512v320.019h512v384h-512v320.019z" />
<glyph unicode="&#xe625;" glyph-name="arrow-right" d="M1024 448l-512 512v-320.019h-512v-384h512v-320.019z" />
<glyph unicode="&#xe626;" glyph-name="back-arrow" d="M402.735 813.265l-320.019-320.019c-24.993-24.993-24.993-65.498 0-90.491l320.019-320.019c24.993-24.993 65.498-24.993 90.491 0s24.993 65.498 0 90.491l-210.754 210.754h613.49c35.347 0 64.019 28.634 64.019 64.019s-28.672 64.019-64.019 64.019h-613.49l210.754 210.754c12.478 12.478 18.735 28.862 18.735 45.246s-6.258 32.768-18.735 45.246c-24.993 24.993-65.498 24.993-90.491 0z" />
<glyph unicode="&#xe627;" glyph-name="calendar" horiz-adv-x="1176" d="M507.259 381.478h-102.059v-101.717h102.059v101.717zM650.885 245.286h-101.945v-101.717h101.945v101.717zM507.259 245.286h-102.059v-101.717h102.059v101.717zM507.259 517.67h-102.059v-101.679h102.059v101.679zM843.131 715.909c23.4 0 42.287 18.887 42.287 42.174v145.408c0 23.324-18.887 42.174-42.287 42.174s-42.325-18.849-42.325-42.174v-145.408c0.038-23.324 18.925-42.174 42.325-42.174zM343.419 715.909c23.362 0 42.249 18.887 42.249 42.174v145.408c0 23.324-18.887 42.174-42.249 42.174-23.4 0-42.325-18.849-42.325-42.174v-145.408c0-23.324 18.925-42.174 42.325-42.174zM363.444 381.478h-102.059v-101.717h102.059v101.717zM363.444 245.286h-102.059v-101.717h102.059v101.717zM650.885 381.478h-101.945v-101.717h101.945v101.717zM938.325 381.478h-102.059v-101.717h102.059v101.717zM938.325 517.67h-102.059v-101.679h102.059v101.679zM899.337 875.615v-46.914c17.598-15.474 28.71-38.153 28.71-63.412 0-46.801-37.964-84.764-84.916-84.764s-84.954 37.964-84.954 84.764c0 25.259 11.15 47.938 28.71 63.412v46.914h-387.262v-46.914c17.56-15.474 28.71-38.153 28.71-63.412 0-46.801-38.002-84.764-84.916-84.764s-84.954 37.964-84.954 84.764c0 25.259 11.15 47.938 28.71 63.412v46.914h-192.322v-925.279h997.035v925.279h-192.512zM999.234 44.696h-809.832v589.938h809.832v-589.938zM650.885 517.67h-101.945v-101.679h101.945v101.679zM794.624 517.67h-101.983v-101.679h101.983v101.679zM794.624 245.286h-101.983v-101.717h101.983v101.717zM794.624 381.478h-101.983v-101.717h101.983v101.717z" />
<glyph unicode="&#xe628;" glyph-name="caret-down" d="M132.21 673.242c-13.881 13.729-36.295 13.729-50.138 0-13.805-13.653-13.805-35.878 0-49.607l404.897-400.877c13.881-13.729 36.257-13.729 50.138 0l404.897 400.877c13.805 13.729 13.881 35.878 0 49.607s-36.371 13.729-50.138 0.038l-379.866-365.606-379.79 365.568z" />
<glyph unicode="&#xe629;" glyph-name="caret-left" d="M737.242 68.21c13.729-13.881 13.729-36.257 0-50.138s-35.878-13.881-49.607 0l-400.877 404.821c-13.729 13.881-13.729 36.295 0 50.138l400.877 404.897c13.729 13.881 35.878 13.881 49.607 0s13.729-36.257 0-50.138l-365.568-379.79 365.568-379.79z" />
<glyph unicode="&#xe62a;" glyph-name="caret-right" d="M286.72 68.21c-13.729-13.881-13.729-36.257 0-50.138s35.878-13.881 49.607 0l400.877 404.821c13.729 13.881 13.729 36.295 0 50.138l-400.915 404.897c-13.729 13.881-35.878 13.881-49.607 0s-13.729-36.257 0-50.138l365.568-379.79-365.568-379.79z" />
<glyph unicode="&#xe62b;" glyph-name="caret-up" d="M891.79 222.758c13.881-13.729 36.295-13.729 50.138 0 13.881 13.729 13.881 35.878 0 49.607l-404.897 400.877c-13.805 13.729-36.257 13.729-50.062 0l-404.897-400.877c-13.805-13.729-13.881-35.878 0-49.607s36.257-13.729 50.138 0l379.79 365.606 379.79-365.606z" />
<glyph unicode="&#xe62c;" glyph-name="ccw" d="M574.767 867.84c-227.593 0-412.672-182.386-418.247-409.335h-125.8l188.378-209.92 188.302 209.92h-146.242c5.537 168.998 143.777 304.393 313.609 304.393 173.397 0 313.913-140.971 313.913-314.899s-140.478-314.861-313.913-314.861c-69.48 0-133.689 22.718-185.685 61.099l-71.983-76.99c70.997-55.751 160.465-89.050 257.707-89.050 231.159 0 418.551 187.961 418.551 419.84-0.038 231.879-187.43 419.84-418.551 419.84z" />
<glyph unicode="&#xe62d;" glyph-name="check-mage" horiz-adv-x="1176" d="M996.617 833.214l-513.555-513.555-256.796 256.834-128.379-128.417 385.214-385.252 641.896 642.010z" />
<glyph unicode="&#xe62e;" glyph-name="clock" d="M512 919.040c-260.134 0-471.040-210.944-471.040-471.040 0-260.134 210.906-471.040 471.040-471.040s471.040 210.906 471.040 471.040c0 260.134-210.906 471.040-471.040 471.040zM512 79.36c-203.624 0-368.64 165.054-368.64 368.64s165.016 368.64 368.64 368.64 368.64-165.054 368.64-368.64-165.016-368.64-368.64-368.64zM547.84 714.24h-71.68v-281.069l174.345-174.345 50.669 50.707-153.335 153.335z" />
<glyph unicode="&#xe62f;" glyph-name="close-mage" horiz-adv-x="1176" d="M1094.391 882.29l-77.71 77.71-423.329-423.347-423.33 423.347-77.71-77.672 423.35-423.368-423.312-423.329 77.672-77.71 423.338 423.338 423.283-423.3 77.671 77.71-423.263 423.281z" />
<glyph unicode="&#xe630;" glyph-name="delete" horiz-adv-x="1176" d="M337.541-61.004h513.024l64.512 645.916h-639.128l61.592-645.916zM737.394 805.831v116.508c0 19.191-15.398 34.702-34.361 34.702h-217.847c-19.001 0-34.361-15.55-34.361-34.702v-114.574c-73.576-8.382-150.149-24.614-226.494-52.338v-106.989h738.001v109.833c0 0-90.074 31.403-224.977 47.559zM668.937 812.241c-47.749 3.224-99.252 4.096-153.297 0.986v61.44c0 9.519 7.623 17.332 17.143 17.332h118.936c9.519 0 17.218-7.813 17.218-17.332v-62.426z" />
<glyph unicode="&#xe631;" glyph-name="edit" horiz-adv-x="1176" d="M928.503 933.111l-111.502-112.109 156.065-156.9 111.502 112.071-156.065 156.937zM215.002 215.59l156.065-156.9 535.211 538.093-156.065 156.9-535.211-538.093zM103.917-47.161l188.985 49.873-139.302 140.098-49.683-190.009z" />
<glyph unicode="&#xe632;" glyph-name="error" d="M1014.67 137.349c0 0 0 0 0 0l-310.651 310.651 310.651 310.651c0 0 0 0 0 0 3.337 3.337 5.765 7.244 7.32 11.416 4.248 11.378 1.82 24.69-7.32 33.83l-146.735 146.735c-9.14 9.14-22.452 11.567-33.83 7.32-4.172-1.555-8.078-3.982-11.416-7.32 0 0 0 0 0 0l-310.651-310.651-310.651 310.651c0 0 0 0 0 0-3.337 3.337-7.244 5.765-11.416 7.32-11.378 4.248-24.69 1.82-33.83-7.32l-146.735-146.735c-9.14-9.14-11.567-22.452-7.32-33.83 1.555-4.172 3.982-8.078 7.32-11.416 0 0 0 0 0 0l310.651-310.651-310.651-310.651c0 0 0 0 0 0-3.337-3.337-5.765-7.244-7.32-11.416-4.248-11.378-1.82-24.69 7.32-33.83l146.735-146.735c9.14-9.14 22.452-11.567 33.83-7.32 4.172 1.555 8.078 3.982 11.416 7.32 0 0 0 0 0 0l310.651 310.651 310.651-310.651c0 0 0 0 0 0 3.337-3.337 7.244-5.765 11.416-7.32 11.378-4.248 24.69-1.82 33.83 7.32l146.735 146.735c9.14 9.14 11.567 22.452 7.32 33.83-1.555 4.172-3.982 8.078-7.32 11.416z" />
<glyph unicode="&#xe633;" glyph-name="help" horiz-adv-x="1176" d="M593.351 937.434c-270.336 0-489.434-219.098-489.434-489.358s219.098-489.434 489.434-489.434 489.434 219.136 489.434 489.434-219.136 489.358-489.434 489.358zM635.752 133.404c-11.985-11.719-26.396-17.636-43.16-17.636-8.154 0-15.967 1.517-23.4 4.589-7.358 3.034-13.843 7.168-19.456 12.174-5.613 5.158-10.126 11.226-13.388 18.356-3.337 7.13-4.968 14.753-4.968 22.945 0 16.308 5.992 30.303 17.977 42.060 11.947 11.681 26.396 17.598 43.198 17.598 16.308 0 30.606-5.689 42.78-16.801 12.25-11.188 18.318-24.993 18.318-41.339-0.038-16.384-5.992-30.303-17.939-41.984zM778.923 577.327c-3.982-13.767-9.747-26.396-17.18-37.774-7.471-11.454-16.498-22.49-27.079-33.071s-22.49-21.618-35.65-33.033c-11.454-9.785-20.783-18.318-27.913-25.79-7.168-7.396-12.895-14.867-17.218-22.338-4.286-7.433-7.282-15.398-9.026-24.007-1.707-8.609-2.617-49.721-2.617-62.35v-22.338h-101.376v32.616c0 13.729 0.986 56.661 3.034 67.584s5.158 21.125 9.481 30.872 10.012 19.228 17.18 28.369c7.168 9.14 16.232 18.887 27.079 29.203l38.647 36.902c10.847 9.747 20.177 20.632 27.951 32.616 7.737 12.060 11.529 26.7 11.529 43.88 0 22.3-6.978 41.036-21.011 56.206-14.071 15.17-33.944 22.793-59.695 22.793-13.16 0-25.069-2.389-35.65-7.282-10.619-4.817-19.797-11.454-27.496-19.759-7.737-8.344-13.577-17.901-17.598-28.786-3.982-10.847-6.334-21.997-6.865-33.527l-105.624 9.444c3.413 27.496 10.733 51.959 21.921 73.463 11.112 21.466 25.562 39.595 43.311 54.575 17.711 14.829 38.078 26.169 61.023 33.944 22.869 7.699 47.521 11.605 73.842 11.605 24.614 0 47.976-3.603 70.049-10.771 21.959-7.168 41.491-17.711 58.406-31.782 16.839-14.033 30.227-31.365 39.936-51.959 9.709-20.632 14.564-44.411 14.564-71.263 0-18.356-2.010-34.475-5.992-48.166z" />
<glyph unicode="&#xe634;" glyph-name="history" d="M574.805 867.84c-227.631 0-412.71-182.386-418.247-409.335h-125.838l188.378-209.958 188.302 209.958h-146.242c5.537 168.998 143.777 304.393 313.647 304.393 173.359 0 313.875-140.971 313.875-314.899s-140.478-314.861-313.875-314.861c-69.518 0-133.727 22.718-185.761 61.099l-71.983-76.99c71.073-55.751 160.503-89.050 257.745-89.050 231.121 0 418.513 187.961 418.513 419.84-0.038 231.879-187.43 419.84-418.513 419.84zM537.6 673.28v-240.109l153.865-153.865 50.669 50.669-132.855 132.855v210.413h-71.68z" />
<glyph unicode="&#xe635;" glyph-name="export" d="M383.462 382.49h255.693v213.043h127.795l-255.642 255.667-255.642-255.667h127.795zM852.173 382.49v-170.394h-681.754v170.394h-170.419v-340.89h1022.618v340.89z" />
<glyph unicode="&#xe636;" glyph-name="import" d="M639.155 851.2h-255.693v-213.043h-127.795l255.667-255.667 255.616 255.667h-127.795zM852.173 382.49v-170.394h-681.754v170.394h-170.419v-340.89h1022.618v340.89z" />
<glyph unicode="&#xe637;" glyph-name="dot" d="M505.139 959.915c-282.658-3.775-508.826-236.066-505.071-518.827 3.772-282.556 236.1-508.826 518.793-505.003 282.658 3.768 508.826 236.066 505.071 518.827-3.717 282.658-236.1 508.826-518.793 505.003z" />
<glyph unicode="&#xe638;" glyph-name="not-installed" d="M510.413 960c-281.907 0-510.413-228.582-510.413-510.413 0-281.933 228.506-510.464 510.413-510.464s510.387 228.557 510.387 510.464c0 281.83-228.48 510.413-510.387 510.413zM865.843 449.587c0-69.99-20.506-135.27-55.578-190.285l-490.163 490.163c55.091 35.021 120.32 55.475 190.31 55.475 195.942 0 355.43-159.411 355.43-355.354zM154.957 449.587c0 69.939 20.506 135.245 55.578 190.31l490.189-490.189c-55.066-35.072-120.371-55.501-190.31-55.501-195.942-0.026-355.456 159.437-355.456 355.379z" />
<glyph unicode="&#xe639;" glyph-name="disabled" d="M511.77 960c-282.778 0-512.102-229.222-512.102-512.179 0-282.829 229.325-512.102 512.102-512.102 282.931-0.026 512.23 229.248 512.23 512.102 0 282.957-229.299 512.179-512.23 512.179zM143.718 540.032h736.205v-184.269h-736.205v184.269z" />
<glyph unicode="&#xe63a;" glyph-name="menu-item" horiz-adv-x="903" d="M857.675 670.587l-403.18 240.514-402.726-240.514v-457.026l403.18-240.515 402.726 240.514v457.027zM454.857 95.535l-298.427 178.383v335.966l298.157 178.729 298.428-178.383v-335.966l-298.158-178.729z" />
<glyph unicode="&#xe63b;" glyph-name="tag" d="M904.192 959.973l-307.234-0.116-596.89-596.958 426.906-426.906 596.958 596.958-0.113 305.596-119.603 121.426zM858.679 646.663c-39.997-40.001-104.854-40.001-144.794 0-40.001 40.001-40.001 104.796 0 144.794 39.939 40.001 104.796 40.001 144.794 0 39.997-39.997 39.997-104.793 0-144.794z" />
<glyph unicode="&#xe63c;" glyph-name="camera" d="M982.767 728.098h-250.095l-59.255 121.364c0 0-11.827 25.201-42.11 25.201-23.375 0-169.366 0-235.25 0-32.969 0-44.001-25.027-44.001-25.027l-57.484-121.539h-253.406c-22.74 0-41.131-18.459-41.131-41.267v-624.333c0-22.743 18.401-41.199 41.131-41.199h941.636c22.74 0 41.199 18.459 41.199 41.199v624.299c0 22.798-18.456 41.267-41.199 41.267zM512 136.090c-138.793 0-251.597 113.015-251.597 251.931 0 138.912 112.845 251.87 251.597 251.87 138.68 0 251.597-112.981 251.597-251.87 0-138.909-112.913-251.931-251.597-251.931zM512 539.068c-83.255 0-150.972-67.714-150.972-150.972 0-83.197 67.71-150.903 150.972-150.903 83.258 0 150.903 67.714 150.903 150.903 0 83.255-67.652 150.972-150.903 150.972z" />
<glyph unicode="&#xe63d;" glyph-name="grid" d="M0.010 959.628h279.074v-279.074h-279.074zM372.77 959.628h279.074v-279.074h-279.074zM744.892 959.628h279.074v-279.074h-279.074zM0.010 587.503h279.074v-279.074h-279.074zM372.77 587.503h279.074v-279.074h-279.074zM744.892 587.503h279.074v-279.074h-279.074zM0.010 215.415h279.074v-279.074h-279.074zM372.77 215.415h279.074v-279.074h-279.074zM744.892 215.415h279.074v-279.074h-279.074z" />
<glyph unicode="&#xe63e;" glyph-name="list-menu" d="M0.010 771.516h1023.966v-136.509h-1023.966zM0.010 517.53h1023.966v-136.506h-1023.966zM0.010 260.983h1023.966v-136.513h-1023.966z" />
<glyph unicode="&#xe63f;" glyph-name="cart" d="M771.001 183.263c-55.445 0-100.448-44.754-100.448-100.2s44.879-100.324 100.448-100.324 100.448 44.879 100.448 100.324-45.003 100.2-100.448 100.2zM771.001 41.293c-23.123 0-41.77 18.648-41.77 41.771s18.647 41.77 41.77 41.77c23.247 0 41.895-18.648 41.895-41.77s-18.648-41.771-41.895-41.771zM469.532 183.263c-55.445 0-100.449-44.754-100.449-100.2s45.003-100.324 100.449-100.324c55.445 0 100.448 44.879 100.448 100.324s-45.003 100.2-100.448 100.2zM469.532 41.293c-23.123 0-41.771 18.648-41.771 41.771s18.648 41.77 41.771 41.77 41.77-18.648 41.77-41.77-18.648-41.771-41.77-41.771zM823.587 465.588c-130.036 0-238.441 91.622-264.547 213.825h-207.237l-136.749 198.162v1.865h-207.237v-83.541h169.942l78.693-117.729 83.417-412.857h581.183l49.23 243.786c-42.268-27.474-92.616-43.511-146.694-43.511zM1023.862 710.244v45.376l-55.073 18.026-12.929 31.204 24.863 52.71-31.95 32.074-5.967-2.984-45.5-23.123-31.328 12.929-19.642 54.948h-45.376l-2.114-6.464-15.912-48.608-31.203-12.929-52.835 24.863-32.074-31.95 3.108-5.967 23.247-45.624-13.053-31.328-54.948-19.766v-45.376l6.34-2.113 48.732-15.788 12.929-31.204-24.863-52.71 32.074-32.074 6.092 3.108 45.376 22.999 31.328-12.929 19.642-54.824h45.376l2.113 6.464 15.913 48.359 31.203 12.929 52.71-24.988 32.198 32.074-3.108 6.092-23.247 45.624 12.929 31.203 54.948 19.766zM824.582 668.473c-35.057 0-63.65 28.469-63.65 63.526 0 35.182 28.469 63.526 63.65 63.526s63.526-28.469 63.526-63.526c-0.124-35.182-28.469-63.526-63.526-63.526z" />
<glyph unicode="&#xe640;" glyph-name="screen" horiz-adv-x="1159" d="M723.661 70.399c-2.404 10.843-4.034 21.47-5.282 31.583h-277.528c-2.458-20.233-6.917-43.087-14.646-64.305-7.79-21.277-18.796-40.54-33.824-54.15-15.028-13.552-33.689-22.104-59.788-22.158v-25.369h494.020v25.369c-26.142 0.058-44.737 8.61-59.838 22.158-22.44 20.307-35.961 53.91-43.114 86.873zM1126.214 960h-1093.209c-18.22 0-33.005-15.024-33.005-33.596v-731.259c0-18.576 14.785-33.623 33.005-33.623h1093.209c18.224 0 33.067 15.051 33.067 33.623v731.259c0 18.572-14.843 33.596-33.067 33.596zM1079.193 243.078h-999.234v635.394h999.234v-635.394z" />
<glyph unicode="&#xe641;" glyph-name="video" horiz-adv-x="2041" d="M2041.366 958.898v-1021.449h-175.926l-411.263 409.297v204.59l411.263 407.568h175.926zM1305.997-29.076c0-19.377-15.608-34.924-34.856-34.924h-1236.279c-19.255 0-34.863 15.547-34.863 34.924v954.275c0 19.248 15.608 34.801 34.863 34.801h1236.279c19.248 0 34.856-15.553 34.856-34.801v-954.275z" />
<glyph unicode="&#xe642;" glyph-name="revert" horiz-adv-x="1404" d="M1042.226 660.151h-598.393v299.849l-443.833-384.316 443.833-384.403v299.859h598.393c106.478 0 192.801-86.318 192.801-192.801s-86.318-192.796-192.801-192.796v-0.483l-452.707-0.005c-46.695-0.005-84.53-37.845-84.53-84.535 0-46.68 37.84-84.525 84.535-84.525 0.377 0 0.744 0.053 1.121 0.058h451.581c199.964 0 362.044 162.085 362.044 362.039 0 199.964-162.080 362.059-362.044 362.059z" />
<glyph unicode="&#xe643;" glyph-name="clip" d="M939.616 811.616c112.512-112.448 112.512-294.816 0-407.264l-350.944-350.976c-12.512-12.544-32.736-12.544-45.248 0-12.576 12.512-12.576 32.704 0 45.248l346.432 346.464c87.488 87.488 87.488 229.248-0.064 316.768-87.36 87.488-229.248 87.488-316.736 0l-462.304-456.864c-62.496-62.464-62.496-163.776 0-226.24 62.496-62.496 163.744-62.496 226.24 0l466.88 461.344c37.44 37.44 37.44 98.336 0 135.776-37.44 37.408-98.304 37.408-135.744 0l-351.008-351.008c-12.512-12.512-32.736-12.512-45.248 0-12.512 12.544-12.512 32.736 0 45.28l350.976 350.976c62.432 62.464 163.744 62.464 226.24 0 62.496-62.496 62.496-163.776 0-226.272l-466.88-461.376c-87.296-87.328-229.408-87.328-316.736 0s-87.328 229.472 0 316.8l466.88 461.344c112.448 112.512 294.816 112.512 407.264 0z" />
<glyph unicode="&#xe644;" glyph-name="external-link" d="M883.442 76.363h-742.841v741.020h353.038v143.424h-496.46v-1027.823h1029.641v494.588h-143.379zM600.225 960.807l153.593-153.584-302.313-302.26 119.427-119.444 302.35 302.296 153.539-153.584v426.587z" />
<glyph unicode="&#xe647;" glyph-name="module" horiz-adv-x="883" d="M793.271 737.4l-192.695 83.055v-80.482c-2.517-31.926-83.182-57.618-182.582-57.618-99.309 0-180.126 25.692-182.398 57.618h-0.318l-0.465 80.482-197.709-83.055 381.218-167.697 374.95 167.697zM265.959 841.886l-1.104-0.428c32.596-16.331 89.086-27.124 153.551-27.124 64.726 0 121.621 10.94 153.996 27.355l-1.168 0.512c18.811 9.3 29.664 20.34 29.664 32.264 0 32.713-81.606 59.114-182.492 59.114-100.759 0-182.806-26.401-182.806-59.114-0.003-12.007 11.295-23.218 30.36-32.579zM418.418 497.564l-418.418 191.009v-563.335l418.321-189.238 418.321 189.238v563.733l-418.224-191.407z" />
<glyph unicode="&#xe648;" glyph-name="alert-round" d="M1023.959 454.912c-3.717 282.665-236.121 508.842-518.817 505.040-282.689-3.772-508.866-236.091-505.094-518.868 3.772-282.58 236.121-508.842 518.813-505.040 282.689 3.772 508.866 236.067 505.098 518.868zM580.086 55.641h-136.149v136.163h136.149v-136.163zM597.168 666.258l-44.103-388.928h-83.113l-43.099 388.928v171.575h170.318v-171.575z" />
<glyph unicode="&#xe649;" glyph-name="document" horiz-adv-x="793" d="M0 448v-512h793.43v771.052l-42.045 36.62c-23.735 19.666-46.114 39.332-50.183 43.401-4.069 3.391-16.275 14.241-27.126 23.735s-53.574 46.792-94.94 83.412l-75.952 65.78h-503.184v-512zM465.886 746.384c0.678-56.286 1.356-105.791 2.034-109.86 0-6.781 25.77-8.816 107.147-8.816h107.147v-287.534c-0.678-252.27-1.356-288.212-10.85-290.246-5.425-1.356-133.595-2.034-284.821-2.034l-274.649 0.678-1.356 392.646c-0.678 216.328-0.678 396.715 0.678 400.106 1.356 4.069 67.136 6.781 177.674 6.781h175.64l1.356-101.722z" />
</font>
</defs>
</svg>
